Logo Logo
/// 
Canon XF 300 und Schnittprogramm Filmstudio 14

Canon XF 300 and film editing program Studio 14



Frage von ckART:
Dezember 2010

Can the Canon Camera XF 300 (and Canon professional camcorder with MPEG-2 HD) to work with the editing program Pinncale Film Studio 14 easily?

Thank you for your answers and advice.



Antwort von ckART:

We now have eineCanonXF300 Camera. This uses a card and wrote "MFX" files to mpeg2. Can Pinnacle Studio 14 does not understand this format?

I would be very grateful if someone could give me advice.



Antwort von Bernd E.:

MXF is a data container that is in the broadcast world at home: Because there would be more surprising if an amateur program could start something. The best way probably would be a transition to a more professional software - or if necessary, a convert the recordings into an understandable format for Pinnacle Studio. Whether there are viable solutions but in general, or the s.Ende not cost more than equal to purchase another NLE, I can not say.





Antwort von nordheide:

It is possible that the XF300 a software package here that can convert to a compatible format?



Antwort von ckART:

Thank you for your answers.

Someone told me, Pinnacle does not understand this format! Only Programs like AVID, Premiere or Final Cut (Apple) can do that

I will try to call Pinnacle and Canon.



Antwort von jwd96:

Maybe MPEG Streamclip to convert that eat almost everything (I have not tried yet MXF)



Antwort von Tuffy:

"Jwd96" wrote:
Maybe MPEG Streamclip to convert that eat almost everything (I have not tried yet MXF)

MXF is the slightest problem, this is just the container. The question is whether the material is to convert even 422, should remain what it is.
If you try, you should choose something like the Avid DNxHD codec, which is in the MOV container, can Pinnacle something?

If in doubt, it would not have been stupid before the purchase, Pinnalce to call or read the codec support.
I would be synonymous seek a more professional software solution, I think in the segment's still Vegas and Magix (the larger versions)

Greetings!



Antwort von B.DeKid:

MPEGStreamclip can not open the *. MXF files, just try

[Code: 1: dcc892204a]
General
Full Name: D: \ Downloads \ AA027001.MXF
Format: MXF
Format_Commercial_IfAny: XDCAM HD422
Format profile: OP-1a
File size: 32.7 MiB
Duration: 5s 280ms
Total bit rate: 51.9 Mbps
Encoded date: 2010-07-27 19:06:27.00
Writing application: CANON XF305 1:00
Writing library: CANON XF305 1:00

Video
ID: 2
Format: MPEG Video
Format_Commercial_IfAny: XDCAM HD422
Format version: Version 2
Format profile: 4:2:2 @ High
Format / String: Yes
Format settings, Matrix: Default
Format_Settings_GOP: M = 3, N = 12
Format_Settings_Wrapping: Frame
Duration: 5s 280ms
Bit rate mode: Constant
Bitrate: 50.0 Mbps
Width: 1920 pixels
Height: 1080 pixels
Aspect ratio: 16:9
Frame rate: 25.000 fps
Standard: Component
Color space: YUV
ChromaSubsampling: 4:2:2
Bitdepth / String: 8 bits
Scan type: Progressive
Bits / (Pixel * Frame): 0965
Stream size: 31.5 MiB (96%)
Delay_SDTI: 1848240

Audio # 1
ID: 3
Format: PCM
Format_Settings_Wrapping: Frame (AES)
Duration: 5s 280ms
Bitrate: 768 Kbps
Channels: 1 channel
Sampling rate: 48.0 KHz
Bitdepth / String: 16 bits
Stream size: 495 KiB (1%)
Delay_SDTI: 1848240

Audio # 2
ID: 4
Format: PCM
Format_Settings_Wrapping: Frame (AES)
Duration: 5s 280ms
Bitrate: 768 Kbps
Channels: 1 channel
Sampling rate: 48.0 KHz
Bitdepth / String: 16 bits
Stream size: 495 KiB (1%)
Delay_SDTI: 1848240

[/ Code: 1: dcc892204a]

MfG
B. DeKid



Antwort von Tuffy:

Exciting that he recognizes as an XDCAM there.

The Adobe Media Encoder can do it, but will certainly not be there ...




Antworten zu ähnlichen Fragen:
Canon XF 300 and film editing program Studio 14
VideoStitch Studio 2.2: 360°-VR Video Editing mit H.265 und ProRes
ClipKanal: Variety Artisans: Oscar Ballot Guide - Film Editing
Kurznews: Canon 5D Mark III - 300 Dollar Preissenkung in den USA auf 2.500
ClipKanal: ArtandGraft Studio Film: 1150 Canyon Road
Zeitrechnung by Red - Big changes to the HYDROGEN program
the first major Hollywood studio feature film cut on FCPX is Focus
Mit welchem Program macht man sowas?
Canon Xl H1 Studio Sucher
ARRI Certified Pre-Owned Program: gebrauchte zertifizierte ALEXAs direkt von ARRI
DaVinci Resolve (Studio) 12.2 und Fusion 8 Studio Beta sind da
Film "Living on One Dollar" auf Netflix, Gedreht nur mit Canon D5
enthält Resolve Studio auch Fusion Studio?
Blackmagic ATEM: Television Studio vs. Production Studio 4k
EOS C 300
Wilkommen zurück! VEGAS Movie Studio 14, Platinum und Movie Studio 14
Camcorder 300 Euro
Camcorder für 300€
Videoschnitt, GraKa bis 300€
Billig Camcorder gebraucht bis 300
Cam bis max. 300€, 1- Bedingung
Rollei Actioncam 300 - die billige...
CLog3 für C100/300 & XC10
300$ Rabatt für PXW-X70 4k upgrade?!?!
Ximea xiB-64 Hochgeschwindigkeitskamera: 5K mit 300 fps
Zylight zeigt "Silent" LED Fresnel Scheinwerfer F8-300

















weitere Themen:
Spezialthemen


16:9
ARD
AVCHD
AVI
Adobe After Effects
Adobe Premiere Pro
After effects
Apple Final Cut Pro
Audio
Avid
Cam
Camcorder
Camera
Canon
Capture
Capturing
Clip
EOS
Editing
Effect
Error
Export
File
Files
Film
Final Cut
Format
Formate
HDR
Import
JVC
Layer
Light
MAGIX video deLuxe
Magix
Microphone
Monitor
Movie
PC
Panasonic
Pinnacle
Pinnacle Studio
Player
Premiere
RAM
RED
Recording
Red
Software
Sony
Sound
Studio
TV
Tape
Video
Videos