Logo Logo
/// 
Quicktimefehler -2048 kann Dateiformat (mkv) nicht verarbeiten

Quicktime error -2048 can not handle file formats (avi)



Frage von Sonnenkrieger:
Februar 2011

* Edit: I've just seen the gerutsch in the wrong section, where one out of the post? Thank you! *

Hello people
I have on my Windows XP SP3 system a little problem with Quicktime know from someone?
I open a video file with the extension *. mkv not, the error is 2048 (Quicktime file format ann not process).
What does it mean and how do I solve the problem?

The following info about the file:

Video
ID: 1
Format: AVC
Format / Info: Advanced Video Codec
Format profile: High@L4.1
Format settings, CABAC: Yes
Format settings, ReFrames: 8 frames
Format settings, GOP: M = 1, N = 32
Codec ID: V_MPEG4/ISO/AVC
Duration: 56s 54Mn
Bit rate: 6300 Kbps
Width: 1280 pixels
Height: 720 pixels
Display aspect ratio: 16:9
Frame rate: 23.976 fps
Color space: YUV
Chroma subsampling: 4:2:0
Bit depth: 8 bits
Scan type: Progressive
Bits / (Pixel * Frame): 0.285
Stream size: 2.37 GiB (89%)

Language: English

Audio
ID: 2
Format: AC-3
Format / Info: Audio Coding 3
Mode extension: CM (complete main)
Codec ID: A_AC3
Duration: 56s 54Mn
Bit rate mode: Constant
Bit rate: 640 Kbps
Channel (s): 6 channels
Channel positions: Front: LCR, Side: LR, LFE
Sampling rate: 48.0 KHz
Bit depth: 16 bits
Compression mode: Lossy
Stream size: 251 MiB (9%)
Title: AC3 5.1CH 640kbps
Language: English



Thank you ever so much! :)
MfG



Antwort von WoWu:

You need Peran.
http://perian.org/

Another way lad you the nice play times and lead him down at once, can usually synonymous QT containers.

http://code.google.com/p/niceplayer/



Antwort von tommyb:

And besides, he needs a Mac;)



If there is something like Perian not available for Windows called "Quick Time file formats can not handle" just exactly what it says: Quicktime can not open file handle / play /.

Take the VLC.





Antwort von WoWu:

Ooops ... overlooked.




Antworten zu ähnlichen Fragen:
Error message when exporting to QT format
different avi format
I encode avi -> asf format
AVI and burn = what the best format?
AVI format?
Tascam DR-70D File error
Davinci Resolve Export nach AVI und Quicktime h264 unterschiedlich
Sony AX100 4k - Wahl des Formats
Gimbal Doppelgriff an top handle!
RED mit oder ohne side handle
PP CS& Error
Render Error
Kaufberatung Feiyu-tech A2000 Dual Handle Kit (+ ggf. Neue Speicherkarte)
Bildpuffer und Speicheranforderung !ERROR!
Nach Rendering ein Error
Encore CS6 Fatal Error Code 6
MXF-Dateien aus Davinci in Premiere --> Generic Error
cs6 premere pro has encountered an error? Nichts geht mehr!!!
LUT File Kameraeinstellungen
After Effects Performance Test File
Hands-on mit dem neuen RED DSMC2 Side Handle auf der NAB 2016 // NAB 2016
export - qualitätsverlust mit größerem file
Sony defekte Karte -RSV File
Sony A7Rii RX10ii File Size Limit
BMPCC zu Davinci Resolve | DNG file problem
Kurznews: The Pirate Cinema: File Sharing in Echtzeit visualisiert

















weitere Themen:
Spezialthemen


16:9
ARD
AVCHD
AVI
Adobe After Effects
Adobe Premiere Pro
After effects
Apple Final Cut Pro
Audio
Avid
Cam
Camcorder
Camera
Canon
Capture
Capturing
Clip
EOS
Editing
Effect
Error
Export
File
Files
Film
Final Cut
Format
Formate
HDR
Import
JVC
Layer
Light
MAGIX video deLuxe
Magix
Microphone
Monitor
Movie
PC
Panasonic
Pinnacle
Pinnacle Studio
Player
Premiere
RAM
RED
Recording
Red
Software
Sony
Sound
Studio
TV
Tape
Video
Videos