Logo Logo
/// 
Samsung H.264

Samsung H.264



Frage von chrisfauli:
Juni 2009

Hi folks!

I'm s.Donnerstag brought the Samsung H105 and just do not get the videos to my trial of Premiere Pro CS4. If I import, I've always just the soundtrack, but no Picture.

Can anyone help me there?

THANKS in advance.

LG Christian



Antwort von motiongroup:

CS4 can even handle it?



Antwort von chrisfauli:

"motion group" wrote:
CS4 can even handle it?


Well, this question is synonymous to me that:) ... And if not, how do I bring them into the right format?








Antwort von motiongroup:

you have a tip where to get tested a Samsung H105 natively Samplefile by ...



Antwort von chrisfauli:

"motion group" wrote:
you have a tip where to get tested a Samsung H105 natively Samplefile by ...


You come across one of me could've. The cam I'm so already.



Antwort von motiongroup:

yes please upload 2 versions ...

1080s and one 720p50

http://www.file-upload.net/



Antwort von WideScreen:

Trail version of Premiere can not because a Pay AVCHD codec!



Antwort von chrisfauli:

"WideScreen" wrote:
Trail version of Premiere can not because a Pay AVCHD codec!


Then I'd be connected, but still very much if someone could try the file times, whether he (, and if so with what settings) and can open and edit it:

http: \, \; www.fauland.info \; 1080.MP4

now most of it one-1080s video. A 720s I have not here now.

THANKS



Antwort von motiongroup:

that's a no 720p50 and 1080i50

Quote:
Common
Full Name: .... \; Downloads \; Firefox \; 1080.MP4
Format: MPEG-4
Format profile: JVT
Codec ID: avc1
File size: 28.3 MiB
Duration: 25s 962ms
Total bit rate: 9 137 Kbps
@ sec: UNG

Video
ID: 1
Format: AVC
Format / Info: Advanced Video Codec
Format profile: Main@L4.0
Format settings for CABAC: Yes
Format settings for Reframe: 4 frames
Codec ID: avc1
Codec-ID/Info: Advanced Video Coding
Duration: 25s 760ms
Bit rate mode: Variable
Width: 1 280 pixels
Height: 720 pixels
Aspect Ratio: 3161
Original Bildseitenverhält: 16 / 9
Mode, the frame rate: constant
Frame rate: 50,000 FPS
Resolution: 24 bits
Colorimetry: 4:2:0
Scan type: Progressive
Bits / (; pixels *) Frame: 0.000
Stream size: 27.7 MiB (; 98%)
Title: SAMSUNG AVC

Audio
ID: 2
Format: AAC
Format / Info: Advanced Audio Codec
Format version: Version 4
Format profile: LC
Format settings for SBR: No
Codec ID: 40
Duration: 25s 962ms
Bit rate mode: constant
Bitrate: 128 Kbps
Channels: 2 channels
Channel positions: LR
Sampling rate: 48.0 KHz
Resolution: 16 bits
Stream size: 406 KiB (, 1%)
Title: SAMSUNG AAC




Antwort von chrisfauli:

True, it was now my fault, but I even bring itself to only the audio track in Premiere Pro to run.



Antwort von motiongroup:

Now I can tell you in this case, only that in all my apps the file works ..

Full version of CS4 could be the problem then you die, only the trial ..



Antwort von chrisfauli:

"motion group" wrote:
you have a tip where to get tested a Samsung H105 natively Samplefile by ...


Unfortunately not, is my first camcorder and editing bezgl present, I think I understand only station. But I did, I think, but a 1080s-File Nocht found, I invite the high degree to the server. After the file can not play my Lappi, it should be. Gibts now on

http: \, \; www.fauland.info \; 1080er.MP4

And thank you for your effort.

LG Christian








Antwort von motiongroup:

'm back again ... only with QT last version does not play the clip without any problems

EDIUS TRUE
NON POWER DVD
LoiLoScope everything jaw NON
VCL NON
NON DIVx7Player

the 720 works!


Quote:
lgemein
Full Name ....... \; Downloads \; Firefox \; 1080er.MP4
Format: MPEG-4
Format profile: JVT
Codec ID: avc1
File size: 48.3 MiB
Duration: 28s 650ms
Total bit rate: 14.1 Mbps
@ sec: UNG

Video
ID: 1
Format: AVC
Format / Info: Advanced Video Codec
Format profile: Main@L4.0
Format settings for CABAC: Yes
Format settings for Reframe: 4 frames
Codec ID: avc1
Codec-ID/Info: Advanced Video Coding
Duration: 28s 360ms
Bit rate mode: Variable
Width: 1 920 pixels
Height: 1 080 pixels
Aspect Ratio: 3161
Original Bildseitenverhält: 16 / 9
Mode, the frame rate: constant
Frame rate: 25,000 FPS
Resolution: 24 bits
Colorimetry: 4:2:0
Scan type: Interlaced
Scan order: upper field first
Bits / (; pixels *) Frame: 0.000
Stream size: 47.7 MiB (; 99%)
Title: SAMSUNG AVC

Audio
ID: 2
Format: AAC
Format / Info: Advanced Audio Codec
Format version: Version 4
Format profile: LC
Format settings for SBR: No
Codec ID: 40
Duration: 28s 650ms
Bit rate mode: constant
Bitrate: 128 Kbps
Channels: 2 channels
Channel positions: LR
Sampling rate: 48.0 KHz
Resolution: 16 bits
Stream size: 448 KiB (, 1%)
Title: SAMSUNG AAC





Antwort von chrisfauli:

I'm now views the trial of Pinnacle Studio 12 sucked Pros. Will be imported without problems.



Antwort von motiongroup:

Sorry I must mend synonymous in EDIUS5.1 it runs



Antwort von jimpanse:

have the same cam as you have ruined my honeymoon. I'll give it back. you import into the pinnacle synonymous offset ton - asynchronously?

http://forum.slashcam.de/viewtopic.php?p=362137 # 362,137

this is my topic about this on the cam and the problems.

lg jim




Antworten zu ähnlichen Fragen:
H.264 codec
h.264 Bitrate
PP2020 - h.264 Export
HEVC vs. H.264 Dateigröße
H.264 für Linux
h.264 or mpeg 4 or 263
H.264 TV Aufnahmen eindampfen
H.264 --> als DVD brennen
H.264 ruckelt bei Wiedergabe
Umrechnungsfaktor Bitrate MPEG2 -> H.264?
Edius 9.4 keine H.264 400Mbit/s.
DavinciResolve H.265/264 NVIDIA allgemeineFragen
h.265 statt h.264 - Lohnt es sich?
Welche sinnvolle H.264 DirectShow-Komponente?
H.264 / H265 Codec in Da Vinci Resolve
Seltsame Bildfehler im unteren Drittel bei H.264
Arbeiten mit AVC/H.264 Dateien (MPEG-4)
Vidiu Teradek X: Kompakter Streaming H.264-Encoder
Externer Rekorder für 4K H.264/265 10Bit?
Warum ist h.265 "heller" als h.264?
DVD (.vob) in H.264 rekodieren - nur womit?
MPEG-4 H.264 mit einer DVB-C Karte
warum ruckeln Schwenks/Zooms bei H.264-Transportstreams?
AJA HELO Plus: Professionelles H.264 Recording und duales Streaming
PCIe DVB-S+hdtv-mpeg2+h.264- oder USB-Karte.
Blackmagic DaVinci Resolve Update 15.2.4 bringt u.a. besseres H.264/H.265 Encoding

















weitere Themen:
Spezialthemen


16:9
AI
ARD
AVCHD
AVI
Adobe After Effects
Adobe Premiere Pro
After effects
Apple Final Cut Pro
Audio
Avid
Avid Media Composer
Cam
Camcorder
Camera
Canon
Capture
Capturing
Clip
EOS
Editing
Effect
Error
Export
File
Files
Film
Final Cut
Format
Formate
HDR
Import
JVC
KI
Layer
Light
MAGIX video deLuxe
Magix
Microphone
Monitor
Movie
PC
Panasonic
Pinnacle
Pinnacle Studio
Player
Premiere
RAM
RED
Recording
Red
Software
Sony
Sound
Studio
TV
Tape
Video
Videos