Logo Logo
/// 
Motion JPEG mit FCP oder CS5?

Motion JPEG with Final Cut Pro or CS5?



Frage von tkimages:
März 2011

Hi,
I'm trying for a DITALS frames (Transcend Digital Photo Frame PF 830) attribute out of a video that you want to play it.
No matter what I try, the frame does not play the video.
Original format. 1920x1080p25 Full HD, Quicktime mov
In the requirements of the Instructions is available as a video format, Motion JPEG (AVI & MOV; up to 720x480 @ 30 fps).
I have it with Premiere and Final Cut Pro CS 5 tried in all possible sizes, frame rates, codecs, ... I may it do not go.
Does anyone NEN proposal?
Thank you in advance.

Greetings
tkimages



Antwort von Alf_300:

These frames are sold in heaps and synonymous grandma must get her inside drum films, though this one was the times with Media Info seeing, otherwise try Divx

Some of this framework is the Converter freeware of Koyotesoft.com. (PC to nivht unfortunately ;-)



Antwort von tkimages:

Thank you for the first time for the tips. Unfortunately, with the Divx did not work. Software is synonymous present and an example video is not synonymous to the picture frame ...:(
The grandmother I want to know that the hinbekommt! ;)
I'll try next ....





Antwort von Alf_300:

The click-clack cameras make such videos

maybe you will help the next

General
Full name: C: \ 0000 \ DSCF0001.AVI
Format: AVI
Format / Info: Audio Video Interleave
File size: 17.8 MiB
Duration: 16s 0ms
Total bit rate: 9318 Kbps

Video
ID: 0
Format: JPEG
Codec ID: MJPG
Duration: 16s 0ms
Bit rate: 9216 Kbps
Width: 640 pixels
Height: 480 pixels
Aspect ratio: 4:3
Frame rate: 30,000 FPS
Color space: YUV
ChromaSubsampling: 4:2:2
Bitdepth / String: 8 bits
Scan type: Progressive
Bits / (Pixel * Frame): 1.000
Stream size: 17.6 MiB (99%)
Title: Canon AVISTREAM 0100

Audio
ID: 1
Format: PCM
Format settings, Sign: Unsigned
Codec ID: 1
Hint: Microsoft
Duration: 16s 0ms
Bit rate mode: Constant
Bit rate: 88.2 Kbps
Channels: 1 channel
Sampling Rate: 11.024 KHz
Bitdepth / String: 8 bits
Stream size: 172 KiB (1%)
Interleave, duration: 1000 ms (30.00 video frames)
Interleave, preload duration: 1000 ms




Antworten zu ähnlichen Fragen:
Final Cut Pro 7 - External Tone asynchronous to the image
Final Cut Pro 7 to Final Cur Pro X
Question for Final Cut Pro update 5:04
Transitions in Final Cut Pro - always "poor content"
Rumors around Apple's next explosion Final Cut Pro
Different FPS in Final Cut Pro
Next Final Cut Pro version presented to selected audiences
Lamination of Fussler on Lens in Final Cut Pro
Final Cut Pro 7 will not install
Own transition (; Transition) create in Motion, used in Final Cut Pro?
Final Cut Pro "loses" media -> Connect new?
Proper export from Final Cut Pro 7.0
Neu: Apple Final Cut X 10.2, Motion 5.2 und Compressor 4.2 // NAB 2015
Cut with Final Cut Pro X: Second World War Epic Movie 'Unknown Soldier' Breaks Finland Box Office Record.
Final Cut Pro X 10.3.1
Fragen zu Final Cut Pro X
Cinema look, Final Cut pro X
Workflow Final Cut Pro X
Final Cut Pro-X Untertitel Workflow
Final Cut Pro X Clips verschwunden?
Alter Macbook Final Cut Pro
Final Cut Pro X-Freelancer gesucht!
Bremst Chrome Final Cut Pro X?
Problem mit Final Cut Pro X
Gratis Final Cut Pro X Workshop
Kurznews: Handbuch zu Final Cut Pro X 10.2

















weitere Themen:
Spezialthemen


16:9
ARD
AVCHD
AVI
Adobe After Effects
Adobe Premiere Pro
After effects
Apple Final Cut Pro
Audio
Avid
Cam
Camcorder
Camera
Canon
Capture
Capturing
Clip
EOS
Editing
Effect
Error
Export
File
Files
Film
Final Cut
Format
Formate
HDR
Import
JVC
Layer
Light
MAGIX video deLuxe
Magix
Microphone
Monitor
Movie
PC
Panasonic
Pinnacle
Pinnacle Studio
Player
Premiere
RAM
RED
Recording
Red
Software
Sony
Sound
Studio
TV
Tape
Video
Videos



update am 17.September 2019 - 18:02
slashCAM
ist ein Projekt der channelunit GmbH
*Datenschutzhinweis*